SatClube Fórum Patrocinado Por

Você está no fórum Satélite
Apoie-nos!!!

Doe mais que seu tempo e ajude o PORTAL BSD a se manter em atividade. Aqui, compartilhamos o conhecimento, mas precisamos dividir, igualmente, os custos do site.

CLIQUE AQUI e saiba mais detalhes de como nos ajudar.


Responder tópico
ATUALIZAÇÃO: Satélite e Canais BSD
Pág. Anterior  1, 2, 3 ... 18, 19, 20, 21, 22  Próximo

rochasantos123
fortaleza - ceara
Mensagem: #361
16/08/2018, 12:36

English club tv adicionado no intelsat 11 43 .0 w banda c na frequencia 4190 horizontal 12170 fta

Enviar mensagem privada Responder com citação Exibir o perfil do usuário


rochasantos123
fortaleza - ceara
Mensagem: #362
16/08/2018, 12:54

Tv Em tempo sbt manaus adicionado no Express AM8 14 w na frequecia 4093 horizontal 3331

Enviar mensagem privada Responder com citação Exibir o perfil do usuário


Maxonsilva89
Caarapó - Mato Grosso do Sul
Mensagem: #363
17/08/2018, 18:50

Favor corrigir na lista do C2 a TV Aparcida não é mais FEED, mas também não é sinal próprio. Atualizar PIDs de áudio:

257 AAC Est PT
258 AAC Est Audiodescrição

Enviar mensagem privada Responder com citação Exibir o perfil do usuário


rochasantos123
fortaleza - ceara
Mensagem: #364
20/08/2018, 22:55

Mux adicionad no satelite Eutelsat 10 /10E frequecia 3777 vertical 6478 new word sport 2 new word infor fr neword magazine. New word cinema neword sport 1 new word muizik new word trasnat A 12 tv new word info en todos fta

Enviar mensagem privada Responder com citação Exibir o perfil do usuário


rochasantos123
fortaleza - ceara
Mensagem: #365
22/08/2018, 14:38

Pacote fta new word frequencia 3777 vertical 6478 Eutelsat 10A / 10E

Enviar mensagem privada Responder com citação Exibir o perfil do usuário


rochasantos123
fortaleza - ceara
Mensagem: #366
22/08/2018, 14:56

Adiciona no Eutelsat 8 w dois canais no mux zabia frequencia 3852 vertical 9665 EATV e ITV

Enviar mensagem privada Responder com citação Exibir o perfil do usuário


rochasantos123
fortaleza - ceara
Mensagem: #367
22/08/2018, 16:40

Adicionado no satelite intelsate 29 E 50w antena 10 hd e umsegundo na frequencia 4159 vertical 3958

Enviar mensagem privada Responder com citação Exibir o perfil do usuário


jonathan0103
Botucatu - São Paulo
Mensagem: #368
23/08/2018, 21:40

REDE HD (globo) NO STAR ONE C2 3940 V SR 30000 CODIFICOU

Enviar mensagem privada Responder com citação Exibir o perfil do usuário


rochasantos123
fortaleza - ceara
Mensagem: #369
24/08/2018, 06:52

Cinema + fta no ses 6 frequencia 3693 vertical 5180

Enviar mensagem privada Responder com citação Exibir o perfil do usuário


jonathan0103
Botucatu - São Paulo
Mensagem: #370
24/08/2018, 12:48

ATUALIZACOES DAS PIDS:
REDE HD (globo) NO STAR ONE C2 3940 V SR 30000 CODIFICADO


VIDEO = 111 MPEG-2 4:2:2

AUDIO1 (PRINCIPAL DUBLADO - STEREO) = 121 MPEG-1 LAYER 2
AUDIO2 (ESQUERDO ORIGINAL - DIREITO COORDENACAO) = 131 MPEG-1 LAYER 2
AUDIO3 (SEM DESCRICAO, SEIS CANAIS) = 141 DOLBY E (AES3)
AUDIO4 (SEM DESCRICAO, SEIS CANAIS) = 151 DOLBY E (AES3)

ESSES FORAM OS FORMATOS OBSERVADOS NO TS.


Código:
General
ID                          : 0 (0x0)
Complete name               : 08-23_15-17-48_REDE HD.ts
Format                      : MPEG-TS
File size                   : 303 MiB
Duration                    : 47 s 286 ms
Overall bit rate mode       : Variable
Overall bit rate            : 53.7 Mb/s

Video
ID                          : 111 (0x6F)
Menu ID                     : 1 (0x1)
Format                      : MPEG Video
Format version              : Version 2
Format profile              : 4:2:2@High
Format settings             : BVOP
Format settings, BVOP       : Yes
Format settings, Matrix     : Default
Format settings, GOP        : Variable
Format settings, picture st : Frame
Codec ID                    : 2
Duration                    : 46 s 914 ms
Bit rate mode               : Constant
Bit rate                    : 45.6 Mb/s
Maximum bit rate            : 47.0 Mb/s
Width                       : 1 920 pixels
Height                      : 1 080 pixels
Display aspect ratio        : 16:9
Frame rate                  : 29.970 (30000/1001) FPS
Color space                 : YUV
Chroma subsampling          : 4:2:2
Bit depth                   : 8 bits
Scan type                   : Interlaced
Scan order                  : Top Field First
Compression mode            : Lossy
Bits/(Pixel*Frame)          : 0.734
Stream size                 : 255 MiB (84%)
Color primaries             : BT.709
Transfer characteristics    : BT.709
Matrix coefficients         : BT.709

Audio #1
ID                          : 121 (0x79)
Menu ID                     : 1 (0x1)
Format                      : MPEG Audio
Format version              : Version 1
Format profile              : Layer 2
Codec ID                    : 3
Duration                    : 47 s 304 ms
Bit rate mode               : Constant
Bit rate                    : 384 kb/s
Channel(s)                  : 2 channels
Sampling rate               : 48.0 kHz
Frame rate                  : 41.667 FPS (1152 SPF)
Compression mode            : Lossy
Delay relative to video     : -6 ms
Stream size                 : 2.17 MiB (1%)

Audio #2
ID                          : 131 (0x83)
Menu ID                     : 1 (0x1)
Format                      : MPEG Audio
Format version              : Version 1
Format profile              : Layer 2
Codec ID                    : 3
Duration                    : 47 s 304 ms
Bit rate mode               : Constant
Bit rate                    : 384 kb/s
Channel(s)                  : 2 channels
Sampling rate               : 48.0 kHz
Frame rate                  : 41.667 FPS (1152 SPF)
Compression mode            : Lossy
Delay relative to video     : -6 ms
Stream size                 : 2.17 MiB (1%)

Audio #3
ID                          : 141 (0x8D)-1
Menu ID                     : 1 (0x1)
Format                      : Dolby E
Format settings             : Little
Muxing mode                 : SMPTE ST 302 / SMPTE ST 337
Codec ID                    : 6
Duration                    : 47 s 281 ms
Bit rate mode               : Constant
Encoded bit rate            : 2 304 kb/s
Channel(s)                  : 6 channels
Channel positions           : Front: L C R, Side: L R, LFE
Sampling rate               : 48.0 kHz
Frame rate                  : 29.970 FPS (1601.6 SPF)
Bit depth                   : 20 bits
Delay relative to video     : 1 ms

Audio #4
ID                          : 141 (0x8D)-2
Menu ID                     : 1 (0x1)
Format                      : Dolby E
Format settings             : Little
Muxing mode                 : SMPTE ST 302 / SMPTE ST 337
Codec ID                    : 6
Duration                    : 47 s 281 ms
Bit rate mode               : Constant
Encoded bit rate            : 0 b/s
Channel(s)                  : 2 channels
Channel positions           : Front: L R
Sampling rate               : 48.0 kHz
Frame rate                  : 29.970 FPS (1601.6 SPF)
Bit depth                   : 20 bits
Delay relative to video     : 1 ms

Audio #5
ID                          : 151 (0x97)-1
Menu ID                     : 1 (0x1)
Format                      : Dolby E
Format settings             : Little
Muxing mode                 : SMPTE ST 302 / SMPTE ST 337
Codec ID                    : 6
Duration                    : 47 s 281 ms
Bit rate mode               : Constant
Encoded bit rate            : 2 304 kb/s
Channel(s)                  : 6 channels
Channel positions           : Front: L C R, Side: L R, LFE
Sampling rate               : 48.0 kHz
Frame rate                  : 29.970 FPS (1601.6 SPF)
Bit depth                   : 20 bits
Delay relative to video     : 1 ms

Audio #6
ID                          : 151 (0x97)-2
Menu ID                     : 1 (0x1)
Format                      : Dolby E
Format settings             : Little
Muxing mode                 : SMPTE ST 302 / SMPTE ST 337
Codec ID                    : 6
Duration                    : 47 s 281 ms
Bit rate mode               : Constant
Encoded bit rate            : 0 b/s
Channel(s)                  : 2 channels
Channel positions           : Front: L R
Sampling rate               : 48.0 kHz
Frame rate                  : 29.970 FPS (1601.6 SPF)
Bit depth                   : 20 bits
Delay relative to video     : 1 ms

Text #1
ID                          : 111 (0x6F)-CC1
Menu ID                     : 1 (0x1)
Format                      : EIA-608
Muxing mode                 : A/53 / DTVCC Transport
Muxing mode, more info      : Muxed in Video #1
Duration                    : 46 s 914 ms
Bit rate mode               : Constant
Stream size                 : 0.00 Byte (0%)
CaptionServiceName          : CC1

Text #2
ID                          : 111 (0x6F)-1
Menu ID                     : 1 (0x1)
Format                      : EIA-708
Muxing mode                 : A/53 / DTVCC Transport
Muxing mode, more info      : Muxed in Video #1
Duration                    : 46 s 914 ms
Bit rate mode               : Constant
Stream size                 : 0.00 Byte (0%)



Enviar mensagem privada Responder com citação Exibir o perfil do usuário


FagnerMoura
Diadema - SP
Mensagem: #371
25/08/2018, 00:54

Os canais Box do mux United Teleports do SES14 codificaram?

Enviar mensagem privada Responder com citação Exibir o perfil do usuário


Francisco Crispim
Itajaí - SC
br.gif
Mensagem: #372
25/08/2018, 08:50
Administrador

FagnerMoura, o Nss 806 fazendo transferência dos TP para o SES 14.
Não deveria ter queda de sinal. Fica observando esta e outras mudanças.

Na Banda Ku entrou diversos TP´s, porém, ainda de Dados.

Obrigado.

Enviar mensagem privada Responder com citação Exibir o perfil do usuário Visitar o website do usuário MSN Messenger


IgorSl
São Luís - Maranhão
br.gif
Mensagem: #373
25/08/2018, 12:40

jonathan0103 escreveu:
ATUALIZACOES DAS PIDS:
REDE HD (globo) NO STAR ONE C2 3940 V SR 30000 CODIFICADO


VIDEO = 111 MPEG-2 4:2:2

AUDIO1 (PRINCIPAL DUBLADO - STEREO) = 121 MPEG-1 LAYER 2
AUDIO2 (ESQUERDO ORIGINAL - DIREITO COORDENACAO) = 131 MPEG-1 LAYER 2
AUDIO3 (SEM DESCRICAO, SEIS CANAIS) = 141 DOLBY E (AES3)
AUDIO4 (SEM DESCRICAO, SEIS CANAIS) = 151 DOLBY E (AES3)

ESSES FORAM OS FORMATOS OBSERVADOS NO TS.


Código:
General
ID                          : 0 (0x0)
Complete name               : 08-23_15-17-48_REDE HD.ts
Format                      : MPEG-TS
File size                   : 303 MiB
Duration                    : 47 s 286 ms
Overall bit rate mode       : Variable
Overall bit rate            : 53.7 Mb/s

Video
ID                          : 111 (0x6F)
Menu ID                     : 1 (0x1)
Format                      : MPEG Video
Format version              : Version 2
Format profile              : 4:2:2@High
Format settings             : BVOP
Format settings, BVOP       : Yes
Format settings, Matrix     : Default
Format settings, GOP        : Variable
Format settings, picture st : Frame
Codec ID                    : 2
Duration                    : 46 s 914 ms
Bit rate mode               : Constant
Bit rate                    : 45.6 Mb/s
Maximum bit rate            : 47.0 Mb/s
Width                       : 1 920 pixels
Height                      : 1 080 pixels
Display aspect ratio        : 16:9
Frame rate                  : 29.970 (30000/1001) FPS
Color space                 : YUV
Chroma subsampling          : 4:2:2
Bit depth                   : 8 bits
Scan type                   : Interlaced
Scan order                  : Top Field First
Compression mode            : Lossy
Bits/(Pixel*Frame)          : 0.734
Stream size                 : 255 MiB (84%)
Color primaries             : BT.709
Transfer characteristics    : BT.709
Matrix coefficients         : BT.709

Audio #1
ID                          : 121 (0x79)
Menu ID                     : 1 (0x1)
Format                      : MPEG Audio
Format version              : Version 1
Format profile              : Layer 2
Codec ID                    : 3
Duration                    : 47 s 304 ms
Bit rate mode               : Constant
Bit rate                    : 384 kb/s
Channel(s)                  : 2 channels
Sampling rate               : 48.0 kHz
Frame rate                  : 41.667 FPS (1152 SPF)
Compression mode            : Lossy
Delay relative to video     : -6 ms
Stream size                 : 2.17 MiB (1%)

Audio #2
ID                          : 131 (0x83)
Menu ID                     : 1 (0x1)
Format                      : MPEG Audio
Format version              : Version 1
Format profile              : Layer 2
Codec ID                    : 3
Duration                    : 47 s 304 ms
Bit rate mode               : Constant
Bit rate                    : 384 kb/s
Channel(s)                  : 2 channels
Sampling rate               : 48.0 kHz
Frame rate                  : 41.667 FPS (1152 SPF)
Compression mode            : Lossy
Delay relative to video     : -6 ms
Stream size                 : 2.17 MiB (1%)

Audio #3
ID                          : 141 (0x8D)-1
Menu ID                     : 1 (0x1)
Format                      : Dolby E
Format settings             : Little
Muxing mode                 : SMPTE ST 302 / SMPTE ST 337
Codec ID                    : 6
Duration                    : 47 s 281 ms
Bit rate mode               : Constant
Encoded bit rate            : 2 304 kb/s
Channel(s)                  : 6 channels
Channel positions           : Front: L C R, Side: L R, LFE
Sampling rate               : 48.0 kHz
Frame rate                  : 29.970 FPS (1601.6 SPF)
Bit depth                   : 20 bits
Delay relative to video     : 1 ms

Audio #4
ID                          : 141 (0x8D)-2
Menu ID                     : 1 (0x1)
Format                      : Dolby E
Format settings             : Little
Muxing mode                 : SMPTE ST 302 / SMPTE ST 337
Codec ID                    : 6
Duration                    : 47 s 281 ms
Bit rate mode               : Constant
Encoded bit rate            : 0 b/s
Channel(s)                  : 2 channels
Channel positions           : Front: L R
Sampling rate               : 48.0 kHz
Frame rate                  : 29.970 FPS (1601.6 SPF)
Bit depth                   : 20 bits
Delay relative to video     : 1 ms

Audio #5
ID                          : 151 (0x97)-1
Menu ID                     : 1 (0x1)
Format                      : Dolby E
Format settings             : Little
Muxing mode                 : SMPTE ST 302 / SMPTE ST 337
Codec ID                    : 6
Duration                    : 47 s 281 ms
Bit rate mode               : Constant
Encoded bit rate            : 2 304 kb/s
Channel(s)                  : 6 channels
Channel positions           : Front: L C R, Side: L R, LFE
Sampling rate               : 48.0 kHz
Frame rate                  : 29.970 FPS (1601.6 SPF)
Bit depth                   : 20 bits
Delay relative to video     : 1 ms

Audio #6
ID                          : 151 (0x97)-2
Menu ID                     : 1 (0x1)
Format                      : Dolby E
Format settings             : Little
Muxing mode                 : SMPTE ST 302 / SMPTE ST 337
Codec ID                    : 6
Duration                    : 47 s 281 ms
Bit rate mode               : Constant
Encoded bit rate            : 0 b/s
Channel(s)                  : 2 channels
Channel positions           : Front: L R
Sampling rate               : 48.0 kHz
Frame rate                  : 29.970 FPS (1601.6 SPF)
Bit depth                   : 20 bits
Delay relative to video     : 1 ms

Text #1
ID                          : 111 (0x6F)-CC1
Menu ID                     : 1 (0x1)
Format                      : EIA-608
Muxing mode                 : A/53 / DTVCC Transport
Muxing mode, more info      : Muxed in Video #1
Duration                    : 46 s 914 ms
Bit rate mode               : Constant
Stream size                 : 0.00 Byte (0%)
CaptionServiceName          : CC1

Text #2
ID                          : 111 (0x6F)-1
Menu ID                     : 1 (0x1)
Format                      : EIA-708
Muxing mode                 : A/53 / DTVCC Transport
Muxing mode, more info      : Muxed in Video #1
Duration                    : 46 s 914 ms
Bit rate mode               : Constant
Stream size                 : 0.00 Byte (0%)



O fato curioso que esses dois canais a mais de áudio não aparecem nos receptores daqui, se realmente estão.
Dá pra ver que são os dois canais 5.1, agora justifica de onde vem os mesmos da afiliadas digitais da Globo, agora correto os dois canais a mais nas afiliadas, uma parte só tem 1 canal 5.1 mas tem outras que tem dois 5.1.
O sinal dela nacional pra esse Sat HD regional tem também mas apenas 1 5.1 em inglês (SAP), mas transmite em toda a programação. Além de ser estranho ela usar Dolby pra audio, mas pra canais estéreo mesmo, não é comum das outras emissoras já que não é usado no terrestre, bem cara da Globo, ser diferente, como sinal é das afiliadas deve ter sentido. Nem no outro sinal dela que é voltado ao público (3913 V 7500) tem dolby exceto o áudio 5.1 (SAP) porque esse os aparelhos reconhecem como esse áudio, os outros são mesmo AAC usado no digital (ISDB-TB) ou MPEG.

Enviar mensagem privada Responder com citação Exibir o perfil do usuário MSN Messenger


FagnerMoura
Diadema - SP
Mensagem: #374
25/08/2018, 18:52

Essa transmissão da Globo é apenas para fins profissionais. Por isso usam uma taxa e cromia sem compressão para que as afiliadas abram, processem e comprimam no terrestre ou outros meios de transmissão.

Enviar mensagem privada Responder com citação Exibir o perfil do usuário


FagnerMoura
Diadema - SP
Mensagem: #375
25/08/2018, 18:53

Francisco Crispim escreveu:
FagnerMoura, o Nss 806 fazendo transferência dos TP para o SES 14.
Não deveria ter queda de sinal. Fica observando esta e outras mudanças.

Na Banda Ku entrou diversos TP´s, porém, ainda de Dados.

Obrigado.


Até o momento não tive alteração na minha recepção. Espero que melhore com a troca.

Enviar mensagem privada Responder com citação Exibir o perfil do usuário


jonathan0103
Botucatu - São Paulo
Mensagem: #376
25/08/2018, 19:20

IgorSl escreveu:
jonathan0103 escreveu:
ATUALIZACOES DAS PIDS:
REDE HD (globo) NO STAR ONE C2 3940 V SR 30000 CODIFICADO


VIDEO = 111 MPEG-2 4:2:2

AUDIO1 (PRINCIPAL DUBLADO - STEREO) = 121 MPEG-1 LAYER 2
AUDIO2 (ESQUERDO ORIGINAL - DIREITO COORDENACAO) = 131 MPEG-1 LAYER 2
AUDIO3 (SEM DESCRICAO, SEIS CANAIS) = 141 DOLBY E (AES3)
AUDIO4 (SEM DESCRICAO, SEIS CANAIS) = 151 DOLBY E (AES3)

ESSES FORAM OS FORMATOS OBSERVADOS NO TS.


Código:
General
ID                          : 0 (0x0)
Complete name               : 08-23_15-17-48_REDE HD.ts
Format                      : MPEG-TS
File size                   : 303 MiB
Duration                    : 47 s 286 ms
Overall bit rate mode       : Variable
Overall bit rate            : 53.7 Mb/s

Video
ID                          : 111 (0x6F)
Menu ID                     : 1 (0x1)
Format                      : MPEG Video
Format version              : Version 2
Format profile              : 4:2:2@High
Format settings             : BVOP
Format settings, BVOP       : Yes
Format settings, Matrix     : Default
Format settings, GOP        : Variable
Format settings, picture st : Frame
Codec ID                    : 2
Duration                    : 46 s 914 ms
Bit rate mode               : Constant
Bit rate                    : 45.6 Mb/s
Maximum bit rate            : 47.0 Mb/s
Width                       : 1 920 pixels
Height                      : 1 080 pixels
Display aspect ratio        : 16:9
Frame rate                  : 29.970 (30000/1001) FPS
Color space                 : YUV
Chroma subsampling          : 4:2:2
Bit depth                   : 8 bits
Scan type                   : Interlaced
Scan order                  : Top Field First
Compression mode            : Lossy
Bits/(Pixel*Frame)          : 0.734
Stream size                 : 255 MiB (84%)
Color primaries             : BT.709
Transfer characteristics    : BT.709
Matrix coefficients         : BT.709

Audio #1
ID                          : 121 (0x79)
Menu ID                     : 1 (0x1)
Format                      : MPEG Audio
Format version              : Version 1
Format profile              : Layer 2
Codec ID                    : 3
Duration                    : 47 s 304 ms
Bit rate mode               : Constant
Bit rate                    : 384 kb/s
Channel(s)                  : 2 channels
Sampling rate               : 48.0 kHz
Frame rate                  : 41.667 FPS (1152 SPF)
Compression mode            : Lossy
Delay relative to video     : -6 ms
Stream size                 : 2.17 MiB (1%)

Audio #2
ID                          : 131 (0x83)
Menu ID                     : 1 (0x1)
Format                      : MPEG Audio
Format version              : Version 1
Format profile              : Layer 2
Codec ID                    : 3
Duration                    : 47 s 304 ms
Bit rate mode               : Constant
Bit rate                    : 384 kb/s
Channel(s)                  : 2 channels
Sampling rate               : 48.0 kHz
Frame rate                  : 41.667 FPS (1152 SPF)
Compression mode            : Lossy
Delay relative to video     : -6 ms
Stream size                 : 2.17 MiB (1%)

Audio #3
ID                          : 141 (0x8D)-1
Menu ID                     : 1 (0x1)
Format                      : Dolby E
Format settings             : Little
Muxing mode                 : SMPTE ST 302 / SMPTE ST 337
Codec ID                    : 6
Duration                    : 47 s 281 ms
Bit rate mode               : Constant
Encoded bit rate            : 2 304 kb/s
Channel(s)                  : 6 channels
Channel positions           : Front: L C R, Side: L R, LFE
Sampling rate               : 48.0 kHz
Frame rate                  : 29.970 FPS (1601.6 SPF)
Bit depth                   : 20 bits
Delay relative to video     : 1 ms

Audio #4
ID                          : 141 (0x8D)-2
Menu ID                     : 1 (0x1)
Format                      : Dolby E
Format settings             : Little
Muxing mode                 : SMPTE ST 302 / SMPTE ST 337
Codec ID                    : 6
Duration                    : 47 s 281 ms
Bit rate mode               : Constant
Encoded bit rate            : 0 b/s
Channel(s)                  : 2 channels
Channel positions           : Front: L R
Sampling rate               : 48.0 kHz
Frame rate                  : 29.970 FPS (1601.6 SPF)
Bit depth                   : 20 bits
Delay relative to video     : 1 ms

Audio #5
ID                          : 151 (0x97)-1
Menu ID                     : 1 (0x1)
Format                      : Dolby E
Format settings             : Little
Muxing mode                 : SMPTE ST 302 / SMPTE ST 337
Codec ID                    : 6
Duration                    : 47 s 281 ms
Bit rate mode               : Constant
Encoded bit rate            : 2 304 kb/s
Channel(s)                  : 6 channels
Channel positions           : Front: L C R, Side: L R, LFE
Sampling rate               : 48.0 kHz
Frame rate                  : 29.970 FPS (1601.6 SPF)
Bit depth                   : 20 bits
Delay relative to video     : 1 ms

Audio #6
ID                          : 151 (0x97)-2
Menu ID                     : 1 (0x1)
Format                      : Dolby E
Format settings             : Little
Muxing mode                 : SMPTE ST 302 / SMPTE ST 337
Codec ID                    : 6
Duration                    : 47 s 281 ms
Bit rate mode               : Constant
Encoded bit rate            : 0 b/s
Channel(s)                  : 2 channels
Channel positions           : Front: L R
Sampling rate               : 48.0 kHz
Frame rate                  : 29.970 FPS (1601.6 SPF)
Bit depth                   : 20 bits
Delay relative to video     : 1 ms

Text #1
ID                          : 111 (0x6F)-CC1
Menu ID                     : 1 (0x1)
Format                      : EIA-608
Muxing mode                 : A/53 / DTVCC Transport
Muxing mode, more info      : Muxed in Video #1
Duration                    : 46 s 914 ms
Bit rate mode               : Constant
Stream size                 : 0.00 Byte (0%)
CaptionServiceName          : CC1

Text #2
ID                          : 111 (0x6F)-1
Menu ID                     : 1 (0x1)
Format                      : EIA-708
Muxing mode                 : A/53 / DTVCC Transport
Muxing mode, more info      : Muxed in Video #1
Duration                    : 46 s 914 ms
Bit rate mode               : Constant
Stream size                 : 0.00 Byte (0%)



O fato curioso que esses dois canais a mais de áudio não aparecem nos receptores daqui, se realmente estão.
Dá pra ver que são os dois canais 5.1, agora justifica de onde vem os mesmos da afiliadas digitais da Globo, agora correto os dois canais a mais nas afiliadas, uma parte só tem 1 canal 5.1 mas tem outras que tem dois 5.1.
O sinal dela nacional pra esse Sat HD regional tem também mas apenas 1 5.1 em inglês (SAP), mas transmite em toda a programação. Além de ser estranho ela usar Dolby pra audio, mas pra canais estéreo mesmo, não é comum das outras emissoras já que não é usado no terrestre, bem cara da Globo, ser diferente, como sinal é das afiliadas deve ter sentido. Nem no outro sinal dela que é voltado ao público (3913 V 7500) tem dolby exceto o áudio 5.1 (SAP) porque esse os aparelhos reconhecem como esse áudio, os outros são mesmo AAC usado no digital (ISDB-TB) ou MPEG.



Adiciono aqui o arquivo TS que gravei para os amigos do forum também analizar:

https://mega.nz/#!ChMjzIQL!9hFs1mqzHM3pali3jt_F8jfwu_QDrG0t-Ukthp7Wniw

para abrir o video usei codec Elecard, acho que l codec lav funcione tambem, e os dois primeiros canais de audio funcionam com o codec lav audio, os canais em AES3 Dolby não consegui codec.

Enviar mensagem privada Responder com citação Exibir o perfil do usuário


Andre Camargo
Itu - SP
br.gif
Mensagem: #377
25/08/2018, 21:31
Colaborador Canais

Aqui o vídeo abriu normalmente no VLC Media Player, mas som no 3º e 4º áudio nada, fica só um ruído.

Enviar mensagem privada Responder com citação Exibir o perfil do usuário


jonathan0103
Botucatu - São Paulo
Mensagem: #378
25/08/2018, 21:51

Andre Camargo escreveu:
Aqui o vídeo abriu normalmente no VLC Media Player, mas som no 3º e 4º áudio nada, fica só um ruído.


então os audios AES3 Dolby tem que ser processado antes de ser enviados a saida de som, se não da nesse chiado.

Enviar mensagem privada Responder com citação Exibir o perfil do usuário


roberval1
feira de santana - bahia
br.gif
Mensagem: #379
28/08/2018, 01:07

TV Aratu HD no C3 em FTA na mesma frequência.

Enviar mensagem privada Responder com citação Exibir o perfil do usuário MSN Messenger


RafaSciarini
Ourinhos - São Paulo
br.gif
Mensagem: #380
28/08/2018, 18:32

Pacote DTCom adicionado em 89ºW, codificado em Irdeto:

12121 H 2243

O nome dos canais é em numeração sequencial:
1 - MPEG4, SD 480i 4:3, 820/830/110
2 - MPEG4, SD 480i 4:3, 1420/1430/210
3 - MPEG4, SD 480i 4:3, 420/430/310

Enviar mensagem privada Responder com citação Exibir o perfil do usuário


Página 19 de 22 Pág. Anterior  1, 2, 3 ... 18, 19, 20, 21, 22  Próximo
As mensagens publicadas são de responsabilidade de seus autores

Publicidade

  • E-Shop Satélite Crispim
Desenvolvido por Danilo Rodrigues


BSD SHOP - Radio BSD - BSD TV
Contato - Atualizar Satélite - Atualizar Canais Terrestre
Fone: (11) 4526-6791 | E-mail: contato@portalbsd.com.br